• Ксандрия торрент

     

    Nightwish - Vehicle Of Spirit [2016, Symphonic Metal, BDRip, 1080p] Стаж: 7 лет 5 месяцев Сообщений: 1284 29-Дек-16 14:54 (1 год 2 месяца назад) Vehicle Of Spirit 2016 Описание Vehicle of Spirit is a video and audio release from Finnish symphonic metal band Nightwish. Two shows have been recorded during Endless Forms Beautiful World Tour; one at Tampere Stadium (July 31, 2015) and the other at Wembley Arena (December 19, 2015). Also, various songs were recorded around the world. It was released on December 16, 2016. Источник 01. Shudder Before The Beautiful 02. Yours Is An Empty Hope 03. Ever Dream 06. While Your Lips Are Still Red 07. Élan 09. 7 Days To The Wolves 10. Alpenglow 11. The Poet And The Pendulum 12. Nemo 13. I Want My Tears Back 14. Stargazers 16. Last Ride Of The Day 17. The Greatest Show On Earth Качество MPEG-4 AVC / 1920*1080 (16:9) / 9698 kbps / 24 fps Аудио #1 PCM /1536 kbps / 48.0 khz / 2 ch / 16 bit Аудио #2 DTS /768 kbps / 48.0 khz / 6 ch / 16 bit MI Полное имя : D:\Video\Nightwish - Vehicle of Spirit\01. The Wembley Show.mkv Формат : Matroska Версия формата : Version 4 / Version 2 Размер файла : 10,6 Гбайт Продолжительность : 2 ч. 6 м. Общий поток : 12,0 Мбит/сек Дата кодирования : UTC 2016-12-28 21:15:11 Программа кодирования : mkvmerge v7.1.0 ('Good Love') 64bit built on Jul 27 2014 13:06:55 Библиотека кодирования : libebml v1.3.0 + libmatroska v1.4.1 Видео Параметр ReFrames формата : 4 кадра Идентификатор кодека : V_MPEG4/ISO/AVC Продолжительность : 2 ч. 6 м. Битрейт : 9698 Кбит/сек Размер потока : 8,56 Гбайт (81%) Библиотека кодирования : x264 core 148 r2638 7599210 Настройки программы : cabac=1 / ref=4 / deblock=1:-1:-1 / analyse=0x3:0x133 / me=umh / subme=9 / psy=1 / psy_rd=1.00:0.15 / mixed_ref=1 / me_range=24 / chroma_me=1 / trellis=2 / 8x8dct=1 / cqm=0 / deadzone=21,11 / fast_pskip=1 / chroma_qp_offset=-3 / threads=6 / lookahead_threads=1 / sliced_threads=0 / nr=0 / decimate=1 / interlaced=0 / bluray_compat=0 / constrained_intra=0 / bframes=6 / b_pyramid=2 / b_adapt=2 / b_bias=0 / direct=3 / weightb=1 / open_gop=0 / weightp=2 / keyint=240 / keyint_min=24 / scenecut=40 / intra_refresh=0 / rc_lookahead=60 / rc=2pass / mbtree=1 / bitrate=9698 / ratetol=1.0 / qcomp=0.60 / qpmin=0 / qpmax=69 / qpstep=4 / cplxblur=20.0 / qblur=0.5 / vbv_maxrate=50000 / vbv_bufsize=50000 / nal_hrd=none / filler=0 / ip_ratio=1.40 / aq=1:1.00 Default : Да Продолжительность : 2 ч. 6 м. Вид битрейта : Постоянный Частота кадров : 32,000 кадра/сек (1500 spf) Битовая глубина : 16 бит Размер потока : 1,36 Гбайт (13%) Default : Да Продолжительность : 2 ч. 6 м. Вид битрейта : Постоянный Расположение каналов : Front: L C R, Side: L R, LFE Частота : 48,0 КГц Частота кадров : 93,750 кадра/сек (512 spf) Битовая глубина : 16 бит Размер потока : 694 Мбайт (6%) Default : Нет 00:00:00.000 : en:Shudder Before the Beautiful 00:06:58.000 : en:Yours Is an Empty Hope 00:12:45.000 : en:Ever Dream 00:28:52.000 : en:While Your Lips Are Still Red 00:33:57.000 : en:Elan 00:44:43.000 : en:7 Days to the Wolves 00:51:59.000 : en:Alpenglow 00:56:55.000 : en:The Poet and the Pendulum 01:10:55.000 : en:Nemo 01:15:48.500 : en:I Want My Tears Back 01:23:01.000 : en:Stargazers 01:38:48.000 : en:Last Ride of the Day 01:43:46.000 : en:The Greatest Show on Earth Скриншоты 01. Shudder Before The Beautiful 02. Yours Is An Empty Hope 03. Amaranth 04. She Is My Sin 05. Dark Chest Of Wonders 06. My Walden 11. Endless Forms Most Beautiful 12. Alpenglow 16. Last Ride Of The Day 17. The Greatest Show On Earth Качество MPEG-4 AVC / 1920*1080 (16:9) / 8738 kbps / 24 fps Аудио #1 PCM /1536 kbps / 48.0 khz / 2 ch / 16 bit Аудио #2 DTS /768 kbps / 48.0 khz / 6 ch / 16 bit MI Полное имя : D:\Video\Nightwish - Vehicle of Spirit\02. The Tampere Show.mkv Формат : Matroska Версия формата : Version 4 / Version 2 Размер файла : 8,58 Гбайт Продолжительность : 1 ч. 51 м. Общий поток : 11,0 Мбит/сек Дата кодирования : UTC 2016-12-29 09:24:47 Программа кодирования : mkvmerge v7.1.0 ('Good Love') 64bit built on Jul 27 2014 13:06:55 Библиотека кодирования : libebml v1.3.0 + libmatroska v1.4.1 Видео Параметр ReFrames формата : 4 кадра Идентификатор кодека : V_MPEG4/ISO/AVC Продолжительность : 1 ч. 51 м. Битрейт : 8738 Кбит/сек Размер потока : 6,79 Гбайт (79%) Библиотека кодирования : x264 core 148 r2638 7599210 Настройки программы : cabac=1 / ref=4 / deblock=1:-1:-1 / analyse=0x3:0x133 / me=umh / subme=9 / psy=1 / psy_rd=1.00:0.15 / mixed_ref=1 / me_range=24 / chroma_me=1 / trellis=2 / 8x8dct=1 / cqm=0 / deadzone=21,11 / fast_pskip=1 / chroma_qp_offset=-3 / threads=6 / lookahead_threads=1 / sliced_threads=0 / nr=0 / decimate=1 / interlaced=0 / bluray_compat=0 / constrained_intra=0 / bframes=6 / b_pyramid=2 / b_adapt=2 / b_bias=0 / direct=3 / weightb=1 / open_gop=0 / weightp=2 / keyint=240 / keyint_min=24 / scenecut=40 / intra_refresh=0 / rc_lookahead=60 / rc=2pass / mbtree=1 / bitrate=8738 / ratetol=1.0 / qcomp=0.60 / qpmin=0 / qpmax=69 / qpstep=4 / cplxblur=20.0 / qblur=0.5 / vbv_maxrate=50000 / vbv_bufsize=50000 / nal_hrd=none / filler=0 / ip_ratio=1.40 / aq=1:1.00 Default : Да Продолжительность : 1 ч. 51 м. Вид битрейта : Постоянный Частота кадров : 32,000 кадра/сек (1500 spf) Битовая глубина : 16 бит Размер потока : 1,19 Гбайт (14%) Default : Да Продолжительность : 1 ч. 51 м. Вид битрейта : Постоянный Расположение каналов : Front: L C R, Side: L R, LFE Частота : 48,0 КГц Частота кадров : 93,750 кадра/сек (512 spf) Битовая глубина : 16 бит Размер потока : 611 Мбайт (7%) Default : Нет 00:00:00.000 : en:Shudder Before the Beautiful 00:07:05.000 : en:Yours Is an Empty Hope" 00:12:46.000 : en:Amaranth 00:17:10.000 : en:She Is My Sin 00:22:21.000 : en:Dark Chest of Wonders 00:26:57.000 : en:My Walden 00:54:37.000 : en:Endless Forms Most Beautiful 00:59:47.000 : en:Alpenglow 01:25:26.500 : en:Last Ride of the Day 01:30:20.000 : en:The Greatest Show on Earth Скриншоты Weak Fantasy (Vancouver Orpheum) - 00:06:17 Качество MPEG-4 AVC / 1920*864 / 9698 kbps / 24 fps Аудио PCM /1536 kbps / 48.0 khz / 2 ch / 16 bit MI Полное имя : D:\Video\Nightwish - Vehicle of Spirit\03. Weak Fantasy - Vancouver (Orpheum).mkv Формат : Matroska Версия формата : Version 4 / Version 2 Размер файла : 506 Мбайт Продолжительность : 6 м. 17 с. Общий поток : 11,2 Мбит/сек Дата кодирования : UTC 2016-12-26 14:21:58 Программа кодирования : mkvmerge v7.1.0 ('Good Love') 64bit built on Jul 27 2014 13:06:55 Библиотека кодирования : libebml v1.3.0 + libmatroska v1.4.1 Видео Параметр ReFrames формата : 5 кадров Идентификатор кодека : V_MPEG4/ISO/AVC Продолжительность : 6 м. 17 с. Битрейт : 9698 Кбит/сек Размер потока : 437 Мбайт (86%) Библиотека кодирования : x264 core 148 r2638 7599210 Настройки программы : cabac=1 / ref=5 / deblock=1:-1:-1 / analyse=0x3:0x133 / me=umh / subme=9 / psy=1 / psy_rd=1.00:0.15 / mixed_ref=1 / me_range=24 / chroma_me=1 / trellis=2 / 8x8dct=1 / cqm=0 / deadzone=21,11 / fast_pskip=1 / chroma_qp_offset=-3 / threads=6 / lookahead_threads=1 / sliced_threads=0 / nr=0 / decimate=1 / interlaced=0 / bluray_compat=0 / constrained_intra=0 / bframes=6 / b_pyramid=2 / b_adapt=2 / b_bias=0 / direct=3 / weightb=1 / open_gop=0 / weightp=2 / keyint=240 / keyint_min=24 / scenecut=40 / intra_refresh=0 / rc_lookahead=60 / rc=2pass / mbtree=1 / bitrate=9698 / ratetol=1.0 / qcomp=0.60 / qpmin=0 / qpmax=69 / qpstep=4 / cplxblur=20.0 / qblur=0.5 / vbv_maxrate=50000 / vbv_bufsize=50000 / nal_hrd=none / filler=0 / ip_ratio=1.40 / aq=1:1.00 Default : Да Продолжительность : 6 м. 17 с. Вид битрейта : Постоянный Частота кадров : 32,001 кадра/сек (1500 spf) Битовая глубина : 16 бит Размер потока : 69,2 Мбайт (14%) Default : Да Nemo (Buenos Aires Luna Park Stadium) - 00:04:30 Качество MPEG-4 AVC / 1920*1080 / 8078 kbps / 24 fps Аудио PCM /1536 kbps / 48.0 khz / 2 ch / 16 bit MI Полное имя : D:\Video\Nightwish - Vehicle of Spirit\04. Nemo - Buenos Aires (Luna Park Stadium).mkv Формат : Matroska Версия формата : Version 4 / Version 2 Размер файла : 310 Мбайт Продолжительность : 4 м. 30 с. Общий поток : 9606 Кбит/сек Дата кодирования : UTC 2016-12-26 16:10:07 Программа кодирования : mkvmerge v7.1.0 ('Good Love') 64bit built on Jul 27 2014 13:06:55 Библиотека кодирования : libebml v1.3.0 + libmatroska v1.4.1 Видео Параметр ReFrames формата : 4 кадра Идентификатор кодека : V_MPEG4/ISO/AVC Продолжительность : 4 м. 30 с. Битрейт : 8078 Кбит/сек Размер потока : 260 Мбайт (84%) Библиотека кодирования : x264 core 148 r2638 7599210 Настройки программы : cabac=1 / ref=4 / deblock=1:-1:-1 / analyse=0x3:0x133 / me=umh / subme=9 / psy=1 / psy_rd=1.00:0.15 / mixed_ref=1 / me_range=24 / chroma_me=1 / trellis=2 / 8x8dct=1 / cqm=0 / deadzone=21,11 / fast_pskip=1 / chroma_qp_offset=-3 / threads=6 / lookahead_threads=1 / sliced_threads=0 / nr=0 / decimate=1 / interlaced=0 / bluray_compat=0 / constrained_intra=0 / bframes=6 / b_pyramid=2 / b_adapt=2 / b_bias=0 / direct=3 / weightb=1 / open_gop=0 / weightp=2 / keyint=240 / keyint_min=24 / scenecut=40 / intra_refresh=0 / rc_lookahead=60 / rc=2pass / mbtree=1 / bitrate=8078 / ratetol=1.0 / qcomp=0.60 / qpmin=0 / qpmax=69 / qpstep=4 / cplxblur=20.0 / qblur=0.5 / vbv_maxrate=50000 / vbv_bufsize=50000 / nal_hrd=none / filler=0 / ip_ratio=1.40 / aq=1:1.00 Default : Да Продолжительность : 4 м. 30 с. Вид битрейта : Постоянный Частота кадров : 32,002 кадра/сек (1500 spf) Битовая глубина : 16 бит Размер потока : 49,5 Мбайт (16%) Default : Да The Poet and the Pendulum (Mexico City Teatro Metropólitan) - 00:13:58 Качество MPEG-4 AVC / 1920*864 / 9258 kbps / 24 fps Аудио PCM /1536 kbps / 48.0 khz / 2 ch / 16 bit MI Общее Уникальный идентификатор : 246385739009668833562661240901531958246 (0xB95C2AD1BD4C45A3BCAF872C9AED7BE6) Полное имя : D:\Video\Nightwish - Vehicle of Spirit\05. The Poet and the Pendulum - Mexico City (Teatro Metropólitan).mkv Формат : Matroska Версия формата : Version 4 / Version 2 Размер файла : 1,05 Гбайт Продолжительность : 13 м. 58 с. Общий поток : 10,8 Мбит/сек Дата кодирования : UTC 2016-12-26 18:32:41 Программа кодирования : mkvmerge v7.1.0 ('Good Love') 64bit built on Jul 27 2014 13:06:55 Библиотека кодирования : libebml v1.3.0 + libmatroska v1.4.1 Видео Параметр ReFrames формата : 5 кадров Идентификатор кодека : V_MPEG4/ISO/AVC Продолжительность : 13 м. 58 с. Битрейт : 9258 Кбит/сек Размер потока : 925 Мбайт (86%) Библиотека кодирования : x264 core 148 r2638 7599210 Настройки программы : cabac=1 / ref=5 / deblock=1:-1:-1 / analyse=0x3:0x133 / me=umh / subme=9 / psy=1 / psy_rd=1.00:0.15 / mixed_ref=1 / me_range=24 / chroma_me=1 / trellis=2 / 8x8dct=1 / cqm=0 / deadzone=21,11 / fast_pskip=1 / chroma_qp_offset=-3 / threads=6 / lookahead_threads=1 / sliced_threads=0 / nr=0 / decimate=1 / interlaced=0 / bluray_compat=0 / constrained_intra=0 / bframes=6 / b_pyramid=2 / b_adapt=2 / b_bias=0 / direct=3 / weightb=1 / open_gop=0 / weightp=2 / keyint=240 / keyint_min=24 / scenecut=40 / intra_refresh=0 / rc_lookahead=60 / rc=2pass / mbtree=1 / bitrate=9258 / ratetol=1.0 / qcomp=0.60 / qpmin=0 / qpmax=69 / qpstep=4 / cplxblur=20.0 / qblur=0.5 / vbv_maxrate=50000 / vbv_bufsize=50000 / nal_hrd=none / filler=0 / ip_ratio=1.40 / aq=1:1.00 Default : Да Продолжительность : 13 м. 58 с. Вид битрейта : Постоянный Частота кадров : 32,000 кадра/сек (1500 spf) Битовая глубина : 16 бит Размер потока : 153 Мбайт (14%) Default : Да Yours Is an Empty Hope (Joensuu Laulurinne Autodrome) - 00:05:47 Качество MPEG-4 AVC / 1920*908 / 9258 kbps / 24 fps Аудио PCM /1536 kbps / 48.0 khz / 2 ch / 16 bit MI Общее Уникальный идентификатор : 248450525663492507293857201966168531593 (0xBAE9D4A93D99746BBDDFA60B8691E289) Полное имя : D:\Video\Nightwish - Vehicle of Spirit\06. Yours Is an Empty Hope - Joensuu (Laulurinne Autodrome).mkv Формат : Matroska Версия формата : Version 4 / Version 2 Размер файла : 447 Мбайт Продолжительность : 5 м. 47 с. Общий поток : 10,8 Мбит/сек Дата кодирования : UTC 2016-12-26 19:46:11 Программа кодирования : mkvmerge v7.1.0 ('Good Love') 64bit built on Jul 27 2014 13:06:55 Библиотека кодирования : libebml v1.3.0 + libmatroska v1.4.1 Видео Параметр ReFrames формата : 4 кадра Идентификатор кодека : V_MPEG4/ISO/AVC Продолжительность : 5 м. 47 с. Битрейт : 9258 Кбит/сек Размер потока : 383 Мбайт (86%) Библиотека кодирования : x264 core 148 r2638 7599210 Настройки программы : cabac=1 / ref=4 / deblock=1:-1:-1 / analyse=0x3:0x133 / me=umh / subme=9 / psy=1 / psy_rd=1.00:0.15 / mixed_ref=1 / me_range=24 / chroma_me=1 / trellis=2 / 8x8dct=1 / cqm=0 / deadzone=21,11 / fast_pskip=1 / chroma_qp_offset=-3 / threads=6 / lookahead_threads=1 / sliced_threads=0 / nr=0 / decimate=1 / interlaced=0 / bluray_compat=0 / constrained_intra=0 / bframes=6 / b_pyramid=2 / b_adapt=2 / b_bias=0 / direct=3 / weightb=1 / open_gop=0 / weightp=2 / keyint=240 / keyint_min=24 / scenecut=40 / intra_refresh=0 / rc_lookahead=60 / rc=2pass / mbtree=1 / bitrate=9258 / ratetol=1.0 / qcomp=0.60 / qpmin=0 / qpmax=69 / qpstep=4 / cplxblur=20.0 / qblur=0.5 / vbv_maxrate=50000 / vbv_bufsize=50000 / nal_hrd=none / filler=0 / ip_ratio=1.40 / aq=1:1.00 Default : Да Продолжительность : 5 м. 47 с. Вид битрейта : Постоянный Частота кадров : 32,000 кадра/сек (1500 spf) Битовая глубина : 16 бит Размер потока : 63,6 Мбайт (14%) Default : Да 7 Days to the Wolves (Espoo Barona Areena) - 00:07:18 Качество MPEG-4 AVC / 1920*864 / 9258 kbps / 24 fps Аудио PCM /1536 kbps / 48.0 khz / 2 ch / 16 bit MI Общее Уникальный идентификатор : 253948451821563296430217554681251321869 (0xBF0CB15955BDC3A1B0E120D4E52D580D) Полное имя : D:\Video\Nightwish - Vehicle of Spirit\07. 7 Days to the Wolves - Espoo (Barona Areena).mkv Формат : Matroska Версия формата : Version 4 / Version 2 Размер файла : 565 Мбайт Продолжительность : 7 м. 18 с. Общий поток : 10,8 Мбит/сек Дата кодирования : UTC 2016-12-26 21:25:21 Программа кодирования : mkvmerge v7.1.0 ('Good Love') 64bit built on Jul 27 2014 13:06:55 Библиотека кодирования : libebml v1.3.0 + libmatroska v1.4.1 Видео Параметр ReFrames формата : 5 кадров Идентификатор кодека : V_MPEG4/ISO/AVC Продолжительность : 7 м. 18 с. Битрейт : 9258 Кбит/сек Размер потока : 484 Мбайт (86%) Библиотека кодирования : x264 core 148 r2638 7599210 Настройки программы : cabac=1 / ref=5 / deblock=1:-1:-1 / analyse=0x3:0x133 / me=umh / subme=9 / psy=1 / psy_rd=1.00:0.15 / mixed_ref=1 / me_range=24 / chroma_me=1 / trellis=2 / 8x8dct=1 / cqm=0 / deadzone=21,11 / fast_pskip=1 / chroma_qp_offset=-3 / threads=6 / lookahead_threads=1 / sliced_threads=0 / nr=0 / decimate=1 / interlaced=0 / bluray_compat=0 / constrained_intra=0 / bframes=6 / b_pyramid=2 / b_adapt=2 / b_bias=0 / direct=3 / weightb=1 / open_gop=0 / weightp=2 / keyint=240 / keyint_min=24 / scenecut=40 / intra_refresh=0 / rc_lookahead=60 / rc=2pass / mbtree=1 / bitrate=9258 / ratetol=1.0 / qcomp=0.60 / qpmin=0 / qpmax=69 / qpstep=4 / cplxblur=20.0 / qblur=0.5 / vbv_maxrate=50000 / vbv_bufsize=50000 / nal_hrd=none / filler=0 / ip_ratio=1.40 / aq=1:1.00 Default : Да Продолжительность : 7 м. 18 с. Вид битрейта : Постоянный Частота кадров : 32,002 кадра/сек (1500 spf) Битовая глубина : 16 бит Размер потока : 80,3 Мбайт (14%) Default : Да Sleeping Sun (Vizovice Masters of Rock Festival) - 00:04:35 Качество MPEG-4 AVC / 1920*1080 / 9238 kbps / 24 fps Аудио PCM /1536 kbps / 48.0 khz / 2 ch / 16 bit MI Общее Уникальный идентификатор : 217228689764848067650167449948045844841 (0xA36CB94D90E2A34D89F40B9F66B62169) Полное имя : D:\Video\Nightwish - Vehicle of Spirit\08. Sleeping Sun - Vizovice (Masters of Rock Festival).mkv Формат : Matroska Версия формата : Version 4 / Version 2 Размер файла : 355 Мбайт Продолжительность : 4 м. 35 с. Общий поток : 10,8 Мбит/сек Дата кодирования : UTC 2016-12-27 17:23:00 Программа кодирования : mkvmerge v7.1.0 ('Good Love') 64bit built on Jul 27 2014 13:06:55 Библиотека кодирования : libebml v1.3.0 + libmatroska v1.4.1 Видео Параметр ReFrames формата : 4 кадра Идентификатор кодека : V_MPEG4/ISO/AVC Продолжительность : 4 м. 35 с. Битрейт : 9238 Кбит/сек Размер потока : 305 Мбайт (86%) Библиотека кодирования : x264 core 148 r2638 7599210 Настройки программы : cabac=1 / ref=4 / deblock=1:-1:-1 / analyse=0x3:0x133 / me=umh / subme=9 / psy=1 / psy_rd=1.00:0.15 / mixed_ref=1 / me_range=24 / chroma_me=1 / trellis=2 / 8x8dct=1 / cqm=0 / deadzone=21,11 / fast_pskip=1 / chroma_qp_offset=-3 / threads=6 / lookahead_threads=1 / sliced_threads=0 / nr=0 / decimate=1 / interlaced=0 / bluray_compat=0 / constrained_intra=0 / bframes=6 / b_pyramid=2 / b_adapt=2 / b_bias=0 / direct=3 / weightb=1 / open_gop=0 / weightp=2 / keyint=240 / keyint_min=24 / scenecut=40 / intra_refresh=0 / rc_lookahead=60 / rc=2pass / mbtree=1 / bitrate=9238 / ratetol=1.0 / qcomp=0.60 / qpmin=0 / qpmax=69 / qpstep=4 / cplxblur=20.0 / qblur=0.5 / vbv_maxrate=50000 / vbv_bufsize=50000 / nal_hrd=none / filler=0 / ip_ratio=1.40 / aq=1:1.00 Default : Да Продолжительность : 4 м. 35 с. Вид битрейта : Постоянный Частота кадров : 32,002 кадра/сек (1500 spf) Битовая глубина : 16 бит Размер потока : 50,5 Мбайт (14%) Default : Да Sahara (Tampa Ritz Club) - 00:05:52 Качество MPEG-4 AVC / 1920*904 / 9238 kbps / 24 fps Аудио PCM /1536 kbps / 48.0 khz / 2 ch / 16 bit MI Полное имя : D:\Video\Nightwish - Vehicle of Spirit\09. Sahara - Tampa (Ritz Club).mkv Формат : Matroska Версия формата : Version 4 / Version 2 Размер файла : 453 Мбайт Продолжительность : 5 м. 52 с. Общий поток : 10,8 Мбит/сек Дата кодирования : UTC 2016-12-27 18:10:19 Программа кодирования : mkvmerge v7.1.0 ('Good Love') 64bit built on Jul 27 2014 13:06:55 Библиотека кодирования : libebml v1.3.0 + libmatroska v1.4.1 Видео Параметр ReFrames формата : 4 кадра Идентификатор кодека : V_MPEG4/ISO/AVC Продолжительность : 5 м. 52 с. Битрейт : 9238 Кбит/сек Размер потока : 389 Мбайт (86%) Библиотека кодирования : x264 core 148 r2638 7599210 Настройки программы : cabac=1 / ref=4 / deblock=1:-1:-1 / analyse=0x3:0x133 / me=umh / subme=9 / psy=1 / psy_rd=1.00:0.15 / mixed_ref=1 / me_range=24 / chroma_me=1 / trellis=2 / 8x8dct=1 / cqm=0 / deadzone=21,11 / fast_pskip=1 / chroma_qp_offset=-3 / threads=6 / lookahead_threads=1 / sliced_threads=0 / nr=0 / decimate=1 / interlaced=0 / bluray_compat=0 / constrained_intra=0 / bframes=6 / b_pyramid=2 / b_adapt=2 / b_bias=0 / direct=3 / weightb=1 / open_gop=0 / weightp=2 / keyint=240 / keyint_min=24 / scenecut=40 / intra_refresh=0 / rc_lookahead=60 / rc=2pass / mbtree=1 / bitrate=9238 / ratetol=1.0 / qcomp=0.60 / qpmin=0 / qpmax=69 / qpstep=4 / cplxblur=20.0 / qblur=0.5 / vbv_maxrate=50000 / vbv_bufsize=50000 / nal_hrd=none / filler=0 / ip_ratio=1.40 / aq=1:1.00 Default : Да Продолжительность : 5 м. 52 с. Вид битрейта : Постоянный Частота кадров : 32,002 кадра/сек (1500 spf) Битовая глубина : 16 бит Размер потока : 64,6 Мбайт (14%) Default : Да Edema Ruh (Turku Baltic Princess Cruise) - 00:05:47 Качество MPEG-4 AVC / 1920*1080 / 8378 kbps / 24 fps Аудио PCM /1536 kbps / 48.0 khz / 2 ch / 16 bit MI Полное имя : D:\Video\Nightwish - Vehicle of Spirit\10. Edema Ruh - Turku (Baltic Princess Cruise).mkv Формат : Matroska Версия формата : Version 4 / Version 2 Размер файла : 410 Мбайт Продолжительность : 5 м. 47 с. Общий поток : 9909 Кбит/сек Дата кодирования : UTC 2016-12-27 19:22:50 Программа кодирования : mkvmerge v7.1.0 ('Good Love') 64bit built on Jul 27 2014 13:06:55 Библиотека кодирования : libebml v1.3.0 + libmatroska v1.4.1 Видео Параметр ReFrames формата : 4 кадра Идентификатор кодека : V_MPEG4/ISO/AVC Продолжительность : 5 м. 47 с. Битрейт : 8378 Кбит/сек Размер потока : 347 Мбайт (84%) Библиотека кодирования : x264 core 148 r2638 7599210 Настройки программы : cabac=1 / ref=4 / deblock=1:-1:-1 / analyse=0x3:0x133 / me=umh / subme=9 / psy=1 / psy_rd=1.00:0.15 / mixed_ref=1 / me_range=24 / chroma_me=1 / trellis=2 / 8x8dct=1 / cqm=0 / deadzone=21,11 / fast_pskip=1 / chroma_qp_offset=-3 / threads=6 / lookahead_threads=1 / sliced_threads=0 / nr=0 / decimate=1 / interlaced=0 / bluray_compat=0 / constrained_intra=0 / bframes=6 / b_pyramid=2 / b_adapt=2 / b_bias=0 / direct=3 / weightb=1 / open_gop=0 / weightp=2 / keyint=240 / keyint_min=24 / scenecut=40 / intra_refresh=0 / rc_lookahead=60 / rc=2pass / mbtree=1 / bitrate=8378 / ratetol=1.0 / qcomp=0.60 / qpmin=0 / qpmax=69 / qpstep=4 / cplxblur=20.0 / qblur=0.5 / vbv_maxrate=50000 / vbv_bufsize=50000 / nal_hrd=none / filler=0 / ip_ratio=1.40 / aq=1:1.00 Default : Да Продолжительность : 5 м. 47 с. Вид битрейта : Постоянный Частота кадров : 32,002 кадра/сек (1500 spf) Битовая глубина : 16 бит Размер потока : 63,6 Мбайт (15%) Default : Да Last Ride of the Day (feat. Tony Kakko) (Rio de Janeiro Rock in Rio) - 00:04:50 Качество MPEG-4 AVC / 1920*1080 / 8378 kbps / 24 fps Аудио PCM /1536 kbps / 48.0 khz / 2 ch / 16 bit MI Общее Уникальный идентификатор : 196943473729050125300759706819076238612 (0x9429EEEF698CCBD29CABE539E3CB2D14) Полное имя : D:\Video\Nightwish - Vehicle of Spirit\11. Last Ride of the Day (feat. Tony Kakko) - Rio de Janeiro (Rock in Rio).mkv Формат : Matroska Версия формата : Version 4 / Version 2 Размер файла : 356 Мбайт Продолжительность : 4 м. 50 с. Общий поток : 10,3 Мбит/сек Дата кодирования : UTC 2016-12-28 17:58:14 Программа кодирования : mkvmerge v7.1.0 ('Good Love') 64bit built on Jul 27 2014 13:06:55 Библиотека кодирования : libebml v1.3.0 + libmatroska v1.4.1 Видео Параметр ReFrames формата : 4 кадра Идентификатор кодека : V_MPEG4/ISO/AVC Продолжительность : 4 м. 50 с. Битрейт : 8738 Кбит/сек Размер потока : 303 Мбайт (85%) Библиотека кодирования : x264 core 148 r2638 7599210 Настройки программы : cabac=1 / ref=4 / deblock=1:-1:-1 / analyse=0x3:0x133 / me=umh / subme=9 / psy=1 / psy_rd=1.00:0.15 / mixed_ref=1 / me_range=24 / chroma_me=1 / trellis=2 / 8x8dct=1 / cqm=0 / deadzone=21,11 / fast_pskip=1 / chroma_qp_offset=-3 / threads=6 / lookahead_threads=1 / sliced_threads=0 / nr=0 / decimate=1 / interlaced=0 / bluray_compat=0 / constrained_intra=0 / bframes=6 / b_pyramid=2 / b_adapt=2 / b_bias=0 / direct=3 / weightb=1 / open_gop=0 / weightp=2 / keyint=240 / keyint_min=24 / scenecut=40 / intra_refresh=0 / rc_lookahead=60 / rc=2pass / mbtree=1 / bitrate=8738 / ratetol=1.0 / qcomp=0.60 / qpmin=0 / qpmax=69 / qpstep=4 / cplxblur=20.0 / qblur=0.5 / vbv_maxrate=50000 / vbv_bufsize=50000 / nal_hrd=none / filler=0 / ip_ratio=1.40 / aq=1:1.00 Default : Да Продолжительность : 4 м. 50 с. Вид битрейта : Постоянный Частота кадров : 32,002 кадра/сек (1500 spf) Битовая глубина : 16 бит Размер потока : 53,2 Мбайт (15%) Default : Да Élan (Sydney Enmore Theatre) - 00:04:19 Качество MPEG-4 AVC / 1920*1080 / 8378 kbps / 24 fps Аудио PCM /1536 kbps / 48.0 khz / 2 ch / 16 bit MI Полное имя : D:\Video\Nightwish - Vehicle of Spirit\12. Élan - Sydney (Enmore Theatre).mkv Формат : Matroska Версия формата : Version 4 / Version 2 Размер файла : 306 Мбайт Продолжительность : 4 м. 19 с. Общий поток : 9909 Кбит/сек Дата кодирования : UTC 2016-12-28 18:44:26 Программа кодирования : mkvmerge v7.1.0 ('Good Love') 64bit built on Jul 27 2014 13:06:55 Библиотека кодирования : libebml v1.3.0 + libmatroska v1.4.1 Видео Параметр ReFrames формата : 4 кадра Идентификатор кодека : V_MPEG4/ISO/AVC Продолжительность : 4 м. 19 с. Битрейт : 8378 Кбит/сек Размер потока : 259 Мбайт (84%) Библиотека кодирования : x264 core 148 r2638 7599210 Настройки программы : cabac=1 / ref=4 / deblock=1:-1:-1 / analyse=0x3:0x133 / me=umh / subme=9 / psy=1 / psy_rd=1.00:0.15 / mixed_ref=1 / me_range=24 / chroma_me=1 / trellis=2 / 8x8dct=1 / cqm=0 / deadzone=21,11 / fast_pskip=1 / chroma_qp_offset=-3 / threads=6 / lookahead_threads=1 / sliced_threads=0 / nr=0 / decimate=1 / interlaced=0 / bluray_compat=0 / constrained_intra=0 / bframes=6 / b_pyramid=2 / b_adapt=2 / b_bias=0 / direct=3 / weightb=1 / open_gop=0 / weightp=2 / keyint=240 / keyint_min=24 / scenecut=40 / intra_refresh=0 / rc_lookahead=60 / rc=2pass / mbtree=1 / bitrate=8378 / ratetol=1.0 / qcomp=0.60 / qpmin=0 / qpmax=69 / qpstep=4 / cplxblur=20.0 / qblur=0.5 / vbv_maxrate=50000 / vbv_bufsize=50000 / nal_hrd=none / filler=0 / ip_ratio=1.40 / aq=1:1.00 Default : Да Продолжительность : 4 м. 19 с. Вид битрейта : Постоянный Частота кадров : 32,000 кадра/сек (1500 spf) Битовая глубина : 16 бит Размер потока : 47,5 Мбайт (16%) Default : Да Richard Dawkins (Interview from Wembley) - 00:07:30 Качество MPEG-4 AVC / 1920*1080 / 8378 kbps / 24 fps Аудио PCM /1536 kbps / 48.0 khz / 2 ch / 16 bit MI Полное имя : D:\Video\Nightwish - Vehicle of Spirit\13. Richard Dawkins (Interview from Wembley).mkv Формат : Matroska Версия формата : Version 4 / Version 2 Размер файла : 533 Мбайт Продолжительность : 7 м. 30 с. Общий поток : 9919 Кбит/сек Дата кодирования : UTC 2016-12-29 09:21:48 Программа кодирования : mkvmerge v7.1.0 ('Good Love') 64bit built on Jul 27 2014 13:06:55 Библиотека кодирования : libebml v1.3.0 + libmatroska v1.4.1 Видео Параметр ReFrames формата : 4 кадра Идентификатор кодека : V_MPEG4/ISO/AVC Продолжительность : 7 м. 30 с. Битрейт : 8378 Кбит/сек Размер потока : 450 Мбайт (84%) Библиотека кодирования : x264 core 148 r2638 7599210 Настройки программы : cabac=1 / ref=4 / deblock=1:-1:-1 / analyse=0x3:0x133 / me=umh / subme=9 / psy=1 / psy_rd=1.00:0.15 / mixed_ref=1 / me_range=24 / chroma_me=1 / trellis=2 / 8x8dct=1 / cqm=0 / deadzone=21,11 / fast_pskip=1 / chroma_qp_offset=-3 / threads=6 / lookahead_threads=1 / sliced_threads=0 / nr=0 / decimate=1 / interlaced=0 / bluray_compat=0 / constrained_intra=0 / bframes=6 / b_pyramid=2 / b_adapt=2 / b_bias=0 / direct=3 / weightb=1 / open_gop=0 / weightp=2 / keyint=240 / keyint_min=24 / scenecut=40 / intra_refresh=0 / rc_lookahead=60 / rc=2pass / mbtree=1 / bitrate=8378 / ratetol=1.0 / qcomp=0.60 / qpmin=0 / qpmax=69 / qpstep=4 / cplxblur=20.0 / qblur=0.5 / vbv_maxrate=50000 / vbv_bufsize=50000 / nal_hrd=none / filler=0 / ip_ratio=1.40 / aq=1:1.00 Default : Да Продолжительность : 7 м. 30 с. Вид битрейта : Постоянный Частота кадров : 32,002 кадра/сек (1500 spf) Битовая глубина : 16 бит Размер потока : 82,5 Мбайт (15%) Default : Да MPEG-4 AVC / 1920*864 / 8378 kbps / 24 fps Аудио PCM /1536 kbps / 48.0 khz / 2 ch / 16 bit MI Полное имя : D:\Video\Nightwish - Vehicle of Spirit\14. Backstage Documentary.mkv Формат : Matroska Версия формата : Version 4 / Version 2 Размер файла : 970 Мбайт Продолжительность : 13 м. 40 с. Общий поток : 9923 Кбит/сек Дата кодирования : UTC 2016-12-29 11:33:55 Программа кодирования : mkvmerge v7.1.0 ('Good Love') 64bit built on Jul 27 2014 13:06:55 Библиотека кодирования : libebml v1.3.0 + libmatroska v1.4.1 Видео Параметр ReFrames формата : 5 кадров Идентификатор кодека : V_MPEG4/ISO/AVC Продолжительность : 13 м. 40 с. Битрейт : 8378 Кбит/сек Размер потока : 820 Мбайт (85%) Библиотека кодирования : x264 core 148 r2638 7599210 Настройки программы : cabac=1 / ref=5 / deblock=1:-1:-1 / analyse=0x3:0x133 / me=umh / subme=9 / psy=1 / psy_rd=1.00:0.15 / mixed_ref=1 / me_range=24 / chroma_me=1 / trellis=2 / 8x8dct=1 / cqm=0 / deadzone=21,11 / fast_pskip=1 / chroma_qp_offset=-3 / threads=6 / lookahead_threads=1 / sliced_threads=0 / nr=0 / decimate=1 / interlaced=0 / bluray_compat=0 / constrained_intra=0 / bframes=6 / b_pyramid=2 / b_adapt=2 / b_bias=0 / direct=3 / weightb=1 / open_gop=0 / weightp=2 / keyint=240 / keyint_min=24 / scenecut=40 / intra_refresh=0 / rc_lookahead=60 / rc=2pass / mbtree=1 / bitrate=8378 / ratetol=1.0 / qcomp=0.60 / qpmin=0 / qpmax=69 / qpstep=4 / cplxblur=20.0 / qblur=0.5 / vbv_maxrate=50000 / vbv_bufsize=50000 / nal_hrd=none / filler=0 / ip_ratio=1.40 / aq=1:1.00 Default : Да Продолжительность : 13 м. 40 с. Вид битрейта : Постоянный Частота кадров : 32,001 кадра/сек (1500 spf) Битовая глубина : 16 бит Размер потока : 150 Мбайт (15%) Default : Да Стаж: 7 лет 8 месяцев Сообщений: 74 Стаж: 6 лет 9 месяцев Сообщений: 55 Стаж: 8 лет 1 месяц Сообщений: 19 [Цитировать]   Ребята, объясните, плиз, для непотлявых вроде меня: чем вас нынешнее творчество Туомоса так цепляет. После просмотра видео, у меня ощущение что энергию из меня высосали так откровенно. В отличие от End of an Era там было наоборот... И дело похоже не в Тарье. А дело в том что сейчас Туомас творит и что за произведения он пишет... Стаж: 1 год 11 месяцев Сообщений: 379 [Цитировать]   Конечно, поглядеть, на творчество данной команды интересно, так сказать, одну - две вещи в общем концерте, для разнообразия. Но, смотреть таковое длительное время, тем более дома, на диване, одному и не дай бог с кем то... бредятина полнейшая. Дикое однообразие приступов, совместно с монотонным голосом позывов, истерическое восприятие и оных и присутствующих зрителей... да, бывает и хуже но, и того достаточно. И чем так некоторым то по нутру? не внять и не понять Нет ни смысловой направляющей, не музыкальной, одни переборы струн и гаммы клавиш ... Так и я могу. Стаж: 8 лет 3 месяца Сообщений: 18 Твоё мнение очень важно для нас stеreomuzzv писал(а): 72135594Конечно, поглядеть, на творчество данной команды интересно, так сказать, одну - две вещи в общем концерте, для разнообразия. Но, смотреть таковое длительное время, тем более дома, на диване, одному и не дай бог с кем то... бредятина полнейшая. Дикое однообразие приступов, совместно с монотонным голосом позывов, истерическое восприятие и оных и присутствующих зрителей... да, бывает и хуже но, и того достаточно. И чем так некоторым то по нутру? не внять и не понять Нет ни смысловой направляющей, не музыкальной, одни переборы струн и гаммы клавиш ... Так и я могу. Стаж: 6 лет 9 месяцев Сообщений: 55 72137003Твоё мнение очень важно для нас stеreomuzzv писал(а): 72135594Конечно, поглядеть, на творчество данной команды интересно, так сказать, одну - две вещи в общем концерте, для разнообразия. Но, смотреть таковое длительное время, тем более дома, на диване, одному и не дай бог с кем то... бредятина полнейшая. Дикое однообразие приступов, совместно с монотонным голосом позывов, истерическое восприятие и оных и присутствующих зрителей... да, бывает и хуже но, и того достаточно. И чем так некоторым то по нутру? не внять и не понять Нет ни смысловой направляющей, не музыкальной, одни переборы струн и гаммы клавиш ... Так и я могу. Да ,видимо знаток,придётся прислушаться,вдруг мы что- то не то слушаем Стаж: 8 лет 1 месяц Сообщений: 19 Стаж: 3 года 10 месяцев Сообщений: 11 Я и не знал, что диванная аналитика так сильно продвинулась ))) Ксандрия давно уже сами в попсе застряли))) - А музыка от Туомаса) Стаж: 8 лет 2 месяца Сообщений: 58 Нашел у немцев еще вот такое издание - http://www.grooves.land/nightwish-vehicle-spirit-version-regio-nuclear-blast-blu-...-2097667017.html Кстати, отличный магазин с бесплатной доставкой по миру при общей стоимости приобретаемой продукции от 20 евро. Стаж: 8 лет 1 месяц Сообщений: 19 Simax666 писал(а): 72151100Я и не знал, что диванная аналитика так сильно продвинулась ))) Ксандрия давно уже сами в попсе застряли))) - А музыка от Туомаса) ну я бы сказал что по сравненинию с нынешней писаниной Туомаса, они куда продвинутей. Да и Тарьины песни их солистка точно , на мой взгляд, бы лучше вытянула, чем Флор. Стаж: 9 лет 7 месяцев Сообщений: 490 Lutsky_k писал(а): ну я бы сказал что по сравненинию с нынешней писаниной Туомаса, они куда продвинутей. Творчество Xandria - этакое клише вообще и местами калька с ранних Nightwish в частности. При всем моем теплом отношении к этой немецкой группе, они не дотягивают до таланта Туомаса. И альбом с Флор таки классный. Стаж: 11 лет 1 месяц Сообщений: 12 [Цитировать]   stеreomuzzv писал(а): 72135594Конечно, поглядеть, на творчество данной команды интересно, так сказать, одну - две вещи в общем концерте, для разнообразия. Но, смотреть таковое длительное время, тем более дома, на диване, одному и не дай бог с кем то... бредятина полнейшая. Дикое однообразие приступов, совместно с монотонным голосом позывов, истерическое восприятие и оных и присутствующих зрителей... да, бывает и хуже но, и того достаточно. И чем так некоторым то по нутру? не внять и не понять Нет ни смысловой направляющей, не музыкальной, одни переборы струн и гаммы клавиш ... Так и я могу. Сидят две козы на лужайке за кинотеатром и жуют пленку фильма. Одна говорит другой: Стаж: 9 лет 2 месяца Сообщений: 73 Стаж: 7 лет 5 месяцев Сообщений: 31 Стаж: 7 лет 8 месяцев Сообщений: 11 Стаж: 8 лет 5 месяцев Сообщений: 9 [Цитировать]   BlackDemoN777 писал(а): 72172297Флоор некоторые "песни Тарьи" поет лучше самой Тарьи, не понимаю откуда берутся такие нелепые комментарии про ее вокал Сто плюсов)) Я вот сама когда-то занималась академическим вокалом и вообще не понимаю, почему она так адски переоценена, вот уж поистине пиар людям уши заменил))) Стаж: 10 лет 6 месяцев Сообщений: 560 я не фанат но послушал оба концерта подряд и не утомило-- мне понравилось в принцыпе тока на первом видеоряд не фонтан а такто с Флоор получше даже у нее голосок почищще Стаж: 7 лет 10 месяцев Сообщений: 281 [Цитировать]   Когда в 2005-м впервые посмотрел Энд оф Эра, испытал такой восторг - аж мороз по коже. И потом пересматривал много раз ровно с теми же ощущениями. Никакого пиара и в помине тогда не было. Просто такой глубины голоса ни у кого до этого не слышал. И драйва. (Даже у Синявской ) Флор тоже не дотягивает. Голосок у неё, конечно, чистый, но неглубокий. Ближе всё-таки к попсе. Нечто среднее между Шакирой и Аллегровой Но в целом послушать приятно. Правда, на Ever Dream чуть было не вырубил нахрен это убожество, но перетерпел, а дальше получше пошло... Урок в муз. школе. - А скажите мне, дети, в чём разница между Монсерат Кабалье и Таней Булановой? Вовочка тянет руку: - Обе поют хорошо. Но у Кабалье голос получше. /В оригинале 2 последних слова другие. Анекдот-то все ж таки про Вовочку / Стаж: 7 лет 8 месяцев Сообщений: 11 Просто такой глубины голоса ни у кого до этого не слышал. И драйва. (Даже у Синявской ) Флор тоже не дотягивает. Голосок у неё, конечно, чистый, но неглубокий. Ближе всё-таки к попсе. Ну вы сравнили с Синявской - у Тарьи и в помине такой глубины меццо нет как у Тамары. Точнее совсем глубины нет - она как Басков, для непонимающих ничего в опере. У Флор же голос роковый - может и рычать, и орать и чувственно петь. А уж на сцене она огонь - именно такая вокалистка идеальна для всего творчества Nightwish. Стаж: 7 лет 10 месяцев Сообщений: 281 [Цитировать]   Да насчёт Синявской я пошутил, конечно. Но вот насчёт отсутствия глубины у Тарьи - тут вы не правы. Голос у неё оперный - это факт общепризнанный. Другое дело, насколько он хорош в классическом определении этого понятия - тут мнения могут быть различные. И, кстати, ни одна оперная певица не сможет чисто физически выдать всю колоратуру в живом рок-концерте, так сказать, в динамике. Они ж все стоят и пошевелиться лишний раз боятся, чтобы голос не дай бог не дрогнул. А что касается Флор - безусловно, баба она горластая и жжёт на сцене, но никакой классической вокальной школы в её пении нет и в помине. А ведь именно сплав металла с оперным вокалом сделал Nightwish уникальным (после Queen) явлением в рок-музыке. Стаж: 7 лет 8 месяцев Сообщений: 11 Цитата: А ведь именно сплав металла с оперным вокалом сделал Nightwish уникальным (после Queen) явлением в рок-музыке Сделал, но они не стоят на месте, и творчество Туомаса после ухода Тарьи мне больше нравится. Тарья никак не вписалась бы в ту музыку, что они пишут/исполняют сейчас. Так что ее уход, по моему мнению благо для группы. Цитата: Но вот насчёт отсутствия глубины у Тарьи - тут вы не правы. Голос у неё оперный - это факт общепризнанный Так я не спорю - оперный, но слабоват и я привел сравнение подходящее - Басков. Флор же звезд оперных с неба не хватает и исполняет песни именно так как надо. Стаж: 7 лет 10 месяцев Сообщений: 281 [Цитировать]   Буквально вчера обнаружил любопытную вещь. Послушал выборочно некоторые песни в наушниках и, знаете, очень даже ничего Флора поет. Но, как в рекламе Пикника, все меняется, когда приходят они... Нет, не верблюды, не подумайте ничего такого Стоило только включить колонки (где-то на 2 трети полной дури), как очевидное стало явным. Ну сравните сами ту же Ever Dream в исполнении Тарьи и Флор. В первом случае кожей ощущаешь всю мощь и глубину Тарьиного голоса, и волосы дыбом встают на руках А от жалких потуг Флоры просто вянут уши. Согласен с вами, не ее это стиль, но зачем же тогда вообще исполнять песни из репертуара Тарьи? Пели бы новые, и никто бы слова худого в адрес Флор не сказал. И не было бы повода для сравнений. gevarra_ym писал(а): Так я не спорю - оперный, но слабоват и я привел сравнение подходящее - Басков.. СЛАБОВАТ Ну, безусловно. Вам видней. А какими-нибудь объективными доводами это свое чисто субъективное мнение подтвердить сможете? Чтобы уже всем стало понятно, чем именно и насколько он слабоват. А то мужики-то не знают... И, извините за резкость, но сравнение ваше - как бы это помягче сказать - слегка глуповато. В том плане, что Басков - это чистой воды буффонада и профанация, причем, нарочитая. А у Т.Т. в Найтвиш все было серьезно, без дураков. Очевидные же вещи, как их вообще можно сравнивать? Стаж: 7 лет 8 месяцев Сообщений: 11 Цитата: Согласен с вами, не ее это стиль, но зачем же тогда вообще исполнять песни из репертуара Тарьи? Не ее стиль петь оперным голосом так как пела Тарья, но ее стиль петь в рок-группе Nightwish и получается это намного лучше нежели у вашей любимой Тарьи - даже песни из репертуара Nightwish времен Тарьи звучат более мощно в исполнении Флор. Цитата: А какими-нибудь объективными доводами это свое чисто субъективное мнение подтвердить сможете? Чтобы уже всем стало понятно, чем именно и насколько он слабоват. А то мужики-то не знают... Какие объективные критерии вы знаете в оценке голоса? - видимо это когда "всей кожей ощущаешь всю мощь и глубину..., и волосы встают на руках"? Смешно да и только. Я никоим образом не претендую на объективность - основываюсь в суждениях на собственном опыте прослушивания музыки, в том числе и академической оперы. Цитата: сравнение ваше - как бы это помягче сказать - слегка глуповато. В том плане, что Басков - это чистой воды буффонада и профанация, причем, нарочитая. А у Т.Т. в Найтвиш все было серьезно, без дураков. Не буду опускаться на ваш уровень перехода на личности, но вы смешали все - мы говорили об оценке голоса Тарьи и я привел голос примерно ее уровня - Басков. Мы же не говорили об их репертуарах и чем они вообще по жизни занимаются и как. У Баскова есть голос - слабенький тенор, у Тарьи есть голос - слабенькое (по оперным меркам) сопрано, уровень у них один. Я понимаю - вам нравится очень Тарья, мне в бытность ее в Nightwish она тоже нравилась - я тоже после ухода очень долго не слушал новые альбомы Nightwish, затем послушал буквально года 2 назад и мне очень понравилось - музыка стала интересней, тяжелей. Все-таки это группа Туомаса и не голос чей-то олицетворяет их творчество, а личность Холопайнена. Уверен - выбери он другую певицу, а не Флор музыка и общее восприятие группы не пострадали бы. Сейчас Тарья выпускает собственные альбомы с абсолютно попсовой и неинтересной музыкой - послушал один раз и больше не интересуюсь. Да и голос у нее просел еще ниже прежнего уровня. [Цитировать]   gevarra_ym писал(а): Какие объективные критерии вы знаете в оценке голоса? - видимо это когда "всей кожей ощущаешь всю мощь и глубину..., и волосы встают на руках"? Смешно да и только. Для ентого там и стоит смайлик Но если серьёзно, то - да, именно кожей. Вибрацию звуковых волн только так и можно почувствовать. Но для этого аппаратура нужна соответствующая. (Я не хвастаюсь, у меня она не дорогая, ещё совдеповская, "Радиотехника") В наушниках этого не ощутить, ес-сно. Касаемо перехода на личности. Вроде никого не оскорблял... Разве что сравнение назвал глупым, ну так оно и не личность К тому же объяснил свою тчк зрения. Ну, и закругляя уже поднадоевшие прения, скажу, что мне нравится не Тарья сама по себе, а то, как она исполняла те песни. Объективность - прежде всего. И любой мало-мальски объективно настроенный человек признает, что лучше, чем она, в рок-музыке нет оперной певицы (смешно, но это факт). Мне также объективно нравится новая музыка Найтвиш, но что мне не нравится, так это перепевка старых, "оперных" песен в откровенно попсятской манере и непотребным для этого голосом. Это как Джигурда , "поющий" Высоцкого. burton_tsk писал(а): 72261053А мне понравилось )) Кстати, а почему я слышу бэк-вокал, но не вижу, кто его воспроизводит? Там не только бэк-вокал, но и оркестр местами фонограммой звучит. Это нормально. [Цитировать]   Цитата: Но если серьёзно, то - да, именно кожей. Вибрацию звуковых волн только так и можно почувствовать. Но для этого аппаратура нужна соответствующая Первый раз такое определение вижу в характеристике ощущений от музыки, хотя я в теме меломании и аудиофилии уже давно. Ну да ладно - ощущение от музыки субъективно и вы имеете право на собственную характеристику. ))) Аналогично не хвастаюсь, но все равно прозвучит как хвастовство - система у меня собрана грамотно и стоимость ее исчисляется десятками тысяч грязных зеленых бумажек. ))) Исходя из этого посмею не согласиться с вашим выводом о наушниках - наушники высокого класса позволяют услышать нюансы музыки не слышимые в акустике аналогичного класса. Что касается наших оценок певиц - это вкусовщина личная и порешим на этом. С уважением. наушники высокого класса позволяют услышать нюансы музыки не слышимые в акустике аналогичного класса. . Нюансы - да, абсолютно согласен. Мощь и глубину - нет. Частотные диапазоны-то совершенно несопоставимые. (Да и чисто физически - если 100-ваттные колонки приложить к ушам - порвёт перепонки ) Сам предпочитаю слушать студийные записи в наушниках, но концертники - совсем другое дело. Живой звук можно в полной мере ощутить именно кожей. Не понимаю, что вас так удивляет. Это же физическое явление, звуковые волны. Стёкла ведь дребезжат, и даже бокалы лопаются при определённой частоте колебаний - факт общеизвестный. Что уж говорить о коже, когда всё тело порой вибрирует Шучу, конечно, но некоторые концерты (PULSE, к примеру) буквально телом ощущаешь. А насчёт Флор - личной неприязни к потерпевшей я не испитываю, но, повторюсь, - объективно - оперного голоса у неё нет и не будет, наверное, уже, так пусть бы и исполняла новый репертуар, а не пыталась перепеть то, чего ей не дано Создателем. Со взаимным уважением.


  • Commentaires

    Aucun commentaire pour le moment

    Suivre le flux RSS des commentaires


    Ajouter un commentaire

    Nom / Pseudo :

    E-mail (facultatif) :

    Site Web (facultatif) :

    Commentaire :